首页   注册   登录

icylogic

V2EX 第 39300 号会员,加入于 2013-05-19 15:36:48 +08:00
今日活跃度排名 9785
icylogic 最近回复了
servo
是否考虑加入对 vcpkg/conan 的支持?(虽然看起来会比较麻烦)。因为我觉得你这个项目的优势在于用 lua 做构建流程(作为脚本语言比 cmakelists 强太多),包管理这个有了当然好,不过这方面我觉得你大概拼不过 vcpkg 和 conan 的社区,而且有些库甚至会官方维护 conanfile 和 vcpkg/port。
29 天前
回复了 wikinee 创建的主题 程序员 左手小拇指按 ctrl 按的手疼,求支招
spacefn

长按不松开是 shfit/ctrl,短按放开还是空格。需要适应一下。
34 天前
回复了 janus77 创建的主题 程序员 你们写代码的时候,多线操作是怎么做的
i3 workspace
42 天前
回复了 dadachen1997 创建的主题 宽带症候群 b 站出 4k 清晰度了
正在上映的 TV 动画,如果有 1080p,一般发布的就是 300MB~600MB (后续 BD 出来以后,会有压制到 1 GB 左右供收藏的),码率大概就是 2Mbps~3Mbps

```
Input #0, mov,mp4,m4a,3gp,3g2,mj2, from '[JOJO&UHA-WING&Kamigami][JoJo's Bizarre Adventure - Golden Wind][37][x264 1080p][sc_jp].mp4':
Metadata:
major_brand : isom
minor_version : 1
compatible_brands: isom
creation_time : 2019-07-06T18:14:01.000000Z
Duration: 00:23:40.16, start: 0.000000, bitrate: 3077 kb/s
Stream #0:0(und): Video: h264 (High) (avc1 / 0x31637661), yuv420p(tv, bt709/unknown/unknown), 1920x1080 [SAR 1:1 DAR 16:9], 2757 kb/s, 23.98 fps, 23.98 tbr, 1k tbn, 2k tbc (default)
Metadata:
creation_time : 2019-07-06T17:33:54.000000Z
Stream #0:1(und): Audio: aac (LC) (mp4a / 0x6134706D), 44100 Hz, stereo, fltp, 315 kb/s (default)
Metadata:
creation_time : 2019-07-06T17:32:35.000000Z
```

8M 4K 对于动画虽然称不上“足够”,但不至于“ 4k 马赛克”。属于追番的人可以接受的范围。
不过我好奇 4k 片源从哪来的,日本动画又不是电影,我都不知道哪部新番能有 2k,是国产动画出 4k 了?
这件事和楼主套餐有什么关系。。。
org mode

正好放到对应的任务下,让你可以快速回忆起当时的上下文
自带代码补全,代码高亮
本地搜索方便
52 天前
回复了 Livid 创建的主题 Redis 今天踩了一个 redis-py 的坑,分享一下
所以建议再看一遍这些 breaking changes,说不定又能发现隐藏的新坑。
52 天前
回复了 Livid 创建的主题 Redis 今天踩了一个 redis-py 的坑,分享一下
强类型也不一定能解决啊,调换顺序的参数可能类型一样啊。这要覆盖很好的测试才有可能测出来。
所以
1. Named args
2. Major Version 升级要慎重,至少不能连升级指南都不看,changelog 里的 breaking changes 都不看。按照 semantic version 的约定,Major 版本更改就是允许破坏性更新存在的。除了楼上提到的升级指南,不出意外地在 changelog 里找到了

* 3.0.0
BACKWARDS INCOMPATIBLE CHANGES
...
* ZINCRBY arguments 'value' and 'amount' have swapped order to match the
the Redis server. The new argument order is: keyname, amount, value.
* MGET no longer raises an error if zero keys are passed in. Instead an
empty list is returned.
* MSET and MSETNX now require all keys/values to be specified in a single
dictionary argument named mapping. This was changed to allow for future
options to these commands in the future.
* ZADD now requires all element names/scores be specified in a single
dictionary argument named mapping. This was required to allow the NX,
XX, CH and INCR options to be specified.
关于   ·   FAQ   ·   API   ·   我们的愿景   ·   广告投放   ·   感谢   ·   实用小工具   ·   2293 人在线   最高记录 5043   ·     Select Language
创意工作者们的社区
World is powered by solitude
VERSION: 3.9.8.3 · 10ms · UTC 12:59 · PVG 20:59 · LAX 05:59 · JFK 08:59
♥ Do have faith in what you're doing.